吾爱CD音乐

 找回密码
 立即注册

QQ登录

只需一步,快速开始

扫一扫,极速登录

手机短信,快捷登录

搜索

在线
客服

在线客服服务时间: 9:00-22:00

选择下列客服马上在线沟通:

快速
发帖

客服
热线


7*24小时客服服务热线

关注
微信

关注微信二维码
顶部
查看: 119|回复: 1
收起左侧

[专辑] Live - Elgar & Martinu Cello Concerto 24-48]Sol Gabetta

[复制链接]

5978

主题

8785

帖子

3412

积分
吾爱币
25606
贡献
910
违规
10

管理员

发表于 2022-1-20 14:16:29 | 显示全部楼层 |阅读模式
Live - Elgar & Martinu Cello Concerto 24-48]Sol Gabetta




--------------------------------------------------------------------------------

DR15      -0.96 dB   -22.75 dB      8:20 01-Cello Concerto in E Minor, Op. 85: I. Adagio-Moderato (Live)

DR15      -2.07 dB   -24.15 dB      4:35 02-Cello Concerto in E Minor, Op. 85: II. Lento-Allegro molto (Live)

DR14      -7.23 dB   -27.49 dB      4:54 03-Cello Concerto in E Minor, Op. 85: III. Adagio (Live)

DR16      -0.86 dB   -22.19 dB     11:18 04-Cello Concerto in E Minor, Op. 85: IV. Allegro-Moderato-Allegro ma non troppo (Live)

DR15      -1.26 dB   -22.18 dB      8:24 05-Cello Concerto No. 1, H. 196: I. Allegro moderato (Live)

DR16      -1.25 dB   -23.86 dB     10:37 06-Cello Concerto No. 1, H. 196: II. Andante moderato (Live)

DR16      -1.06 dB   -23.07 dB      7:29 07-Cello Concerto No. 1, H. 196: III. Allegro-Andantino-Tempo I (Live)
旅客,假如您要检察本帖隐藏内容请答复






本帖子中包含更多资源

您需要 登录 才可以下载或查看,没有账号?立即注册  

x




上一篇:Janos Starker - J.S.Bach Suites for Solo Cello-2[24-48]
下一篇:Ludwig van Beethoven: Sonata for Violin and Piano
免回复,免币可购买 VIP用户组    积分充值 下载收费主题。

5978

主题

8785

帖子

3412

积分
吾爱币
25606
贡献
910
违规
10

管理员

发表于 2022-1-21 09:22:37 | 显示全部楼层
无回帖,不论坛,这才是人道。
免回复,免币可购买 VIP用户组    积分充值 下载收费主题。
您需要登录后才可以回帖 登录 | 立即注册  

本版积分规则